-
 KDE-Apps.org Applications for the KDE-Desktop 
 GTK-Apps.org Applications using the GTK Toolkit 
 GnomeFiles.org Applications for GNOME 
 MeeGo-Central.org Applications for MeeGo 
 CLI-Apps.org Command Line Applications 
 Qt-Apps.org Free Qt Applications 
 Qt-Prop.org Proprietary Qt Applications 
 Maemo-Apps.org Applications for the Maemo Plattform 
 Java-Apps.org Free Java Applications 
 eyeOS-Apps.org Free eyeOS Applications 
 Wine-Apps.org Wine Applications 
 Server-Apps.org Server Applications 
 apps.ownCloud.com ownCloud Applications 
--
-
 KDE-Look.org Artwork for the KDE-Desktop 
 GNOME-Look.org Artwork for the GNOME-Desktop 
 Xfce-Look.org Artwork for the Xfce-Desktop 
 Box-Look.org Artwork for your Windowmanager 
 E17-Stuff.org Artwork for Enlightenment 
 Beryl-Themes.org Artwork for the Beryl Windowmanager 
 Compiz-Themes.org Artwork for the Compiz Windowmanager 
 EDE-Look.org Themes for your EDE Desktop 
--
-
 Debian-Art.org Stuff for Debian 
 Gentoo-Art.org Artwork for Gentoo Linux 
 SUSE-Art.org Artwork for openSUSE 
 Ubuntu-Art.org Artwork for Ubuntu 
 Kubuntu-Art.org Artwork for Kubuntu 
 LinuxMint-Art.org Artwork for Linux Mint 
 Arch-Stuff.org Art And Stuff for Arch Linux 
 Frugalware-Art.org Themes for Frugalware 
 Fedora-Art.org Artwork for Fedora Linux 
 Mandriva-Art.org Artwork for Mandriva Linux 
--
-
 KDE-Files.org Files for KDE Applications 
 OpenTemplate.org Documents for OpenOffice.org
 GIMPStuff.org Files for GIMP
 InkscapeStuff.org Files for Inkscape
 ScribusStuff.org Files for Scribus
 BlenderStuff.org Textures and Objects for Blender
 VLC-Addons.org Themes and Extensions for VLC
--
-
 KDE-Help.org Support for your KDE Desktop 
 GNOME-Help.org Support for your GNOME Desktop 
 Xfce-Help.org Support for your Xfce Desktop 
--
openDesktop.orgopenDesktop.org:   Applications   Artwork   Linux Distributions   Documents    LinuxDaily.com    Linux42.org    OpenSkillz.com   
 
Apps
News
Groups
Knowledge
Events
Forum
People
Jobs
Register
Login


Sponsoring


-
- Content .- Fans (13) .- Knowledge Base  . 

gCue2tracks

   0.5.0  

GTK Sound Application

Score 85%
gCue2tracks
zoom


gCue2tracks
zoom


Link:  Link
Minimum required   GTK 2.x
Downloads:  12276
Submitted:  May 10 2008
Updated:  Feb 16 2013

Description:

Tool for spliting compressed audio CD image to tracks with filling tags from cue sheet info.

Decompression of all formats supported by ffmpeg(flac,ape,wv,tta...). For more details see:
ffmpeg -formats
in the console.
Encoding formats:
wav : no encode, raw sound wave,
flac : (default) Free Lossless Audio Codec,
ape : Monkey's Audio Codec,
wv : WavPack,
mp3 : mpeg 1 layer 3 via lame
ogg : ogg vorbis


Dependencies:
python, python-gtk2 (>=2.16), cuetools, shntool, ffmpeg

Debian(Ubuntu) repository:
Add this line to your /etc/apt/source.list: deb http://dicson.no-ip.info/repository/debian unstable main
You can get the GPG key of this package by installing gcue2tracks-dev-keyring package from the same repository.




Changelog:

gcue2tracks (0.5.0)
* switching to gtk.Builder
Sat, 14 Aug 2010 12:26:17 +0400

gcue2tracks (0.4.9)
* added french translation. Thanks to Le Gluon du Net
Sun, 01 Aug 2010 23:15:34 +0400

gcue2tracks (0.4.8)
* parse error fix. thanks to andreyz!
* error dialog if codec not exits
Sun, 27 Jun 2010 14:27:56 +0400




LicenseGPL
Debian(gcue2tracks_0.5.2_all.deb)
Source(gcue2tracks_0.5.2-1.tar.gz)
Send to a friend
Subscribe
Other  Apps  from Dicson12
Report inappropriate content



goto page: prev   1  2  3  4  5 

-
.

 Ð¡ÑопоÑÐ¸Ñ Ð¿Ñи налиÑии ÑмлаÑÑ

 
 by Nivelir on: Feb 25 2010
 
Score 50%

Интересная особенность, программа останавливается если в теге есть умлаут (возможно и другие подобные символы).
Например:
Quote:
TRACK 09 AUDIO
TITLE "Get Up ... Carmen"
PERFORMER "Waldeck"
INDEX 00 02:51:13
INDEX 01 31:44:31
TRACK 10 AUDIO
TITLE "Bei mir bist du schön (dub)"
PERFORMER "Waldeck"
INDEX 00 02:51:13
INDEX 01 35:45:29


Log пишет следующее:
Quote:
Decoding to wav
split tracks
start encode
Encoding "Get Up ... Carmen" (1/2)
/usr/bin/flac -T TITLE="Get Up ... Carmen" -T ALBUM="Ballroom Stories" -T TRACKNUMBER=09 -T ARTIST="Waldeck" -T GENRE="Trip-Hop" -T DATE="2007" -T DESCRIPTION="gCue2tracks" -T COMPOSER="" --best /tmp/gcue2tracksUeKNFw/split-track09.wav


к следующему файлу уже не переходя.
Если заменить на простую "о" то всё работает нормально.


Reply to this

-

 Re: СÑопоÑÐ¸Ñ Ð¿Ñи налиÑии ÑмлÐ

 
 by Dicson12 on: Apr 12 2010
 
Score 50%

Ссылкой не поделитесь на этот образ?


Reply to this

-

 Re: Re: СÑопоÑÐ¸Ñ Ð¿Ñи налиÑии ÑÐ

 
 by Nivelir on: Apr 12 2010
 
Score 50%

Пожалуйста (требуется регистрация):
http://losslessclub.com/details.php?id=8039


Reply to this

-

 Re: Re: Re: СÑопоÑÐ¸Ñ Ð¿Ñи налиÑии

 
 by Dicson12 on: Apr 12 2010
 
Score 50%

Похоже скачать мне это чудо не удастся.Ни оперой не deluge. видать суровый трекер


Reply to this

-
.

 ubuntu 10.04

 
 by JabezKaiser on: May 3 2010
 
Score 50%

Recently upgrade to Ubuntu 10.04, now the Gcue2track not working, I don't know where is the problem. It doesn't show much information in the log file. or it is not compatible with ubuntu 10.04 now? I really love this application, hope can get it fix and use again. Thanks a lot!

>>
.log
Decoding to wav
decode error
>>


Reply to this

-
.

 ubuntu 10.04

 
 by JabezKaiser on: May 3 2010
 
Score 50%

Recently upgrade to Ubuntu 10.04, now the Gcue2track not working, I don't know where is the problem. It doesn't show much information in the log file. or it is not compatible with ubuntu 10.04 now? I really love this application, hope can get it fix and use again. Thanks a lot!

>>
.log
Decoding to wav
decode error
>>


Reply to this

-
.

 ubuntu 10.04

 
 by JabezKaiser on: May 3 2010
 
Score 50%

Recently upgrade to Ubuntu 10.04, now the Gcue2track not working, I don't know where is the problem. It doesn't show much information in the log file. or it is not compatible with ubuntu 10.04 now? I really love this application, hope can get it fix and use again. Thanks a lot!

>>
.log
Decoding to wav
decode error
>>


Reply to this

-
.

 Re: ubuntu 10.04

 
 by JabezKaiser on: May 3 2010
 
Score 50%

sorry I got it work again, reinstall ffmpeg from the repository by not using the latest ffmpeg code from git. :p sorry for that.


Reply to this

-
.

 Re: Re: ubuntu 10.04

 
 by Dicson12 on: May 3 2010
 
Score 50%

It is good news ;)


Reply to this

-

 Bin Ñайл не найден

 
 by kuchumovn on: May 30 2010
 
Score 50%

Здравствуйте.
Попробовал распилить им APE - пишет "Bin файл не найден" после выбора CUE-файла.

Имеются:

CDImage.ape
CDImage.cue:

PERFORMER "Garmarna"
TITLE "Vedergällningen"
FILE "CDImage.wav" WAVE
TRACK 01 AUDIO
TITLE "Gamen"
PERFORMER "Garmarna"
FLAGS DCP
INDEX 01 00:00:00
TRACK 02 AUDIO
TITLE "Euchari"
PERFORMER "Garmarna"
FLAGS DCP
INDEX 01 04:01:00
TRACK 03 AUDIO
TITLE "Halling Jĺron"
PERFORMER "Garmarna"
FLAGS DCP
INDEX 01 08:22:10
TRACK 04 AUDIO
TITLE "Vedergällningen"
PERFORMER "Garmarna"
FLAGS DCP
INDEX 01 11:25:24
TRACK 05 AUDIO
TITLE "Nio ĺr"
PERFORMER "Garmarna"
FLAGS DCP
INDEX 01 16:21:17
TRACK 06 AUDIO
TITLE "Sorgsen ton"
PERFORMER "Garmarna"
FLAGS DCP
INDEX 01 20:50:20
TRACK 07 AUDIO
TITLE "Herr Holkin"
PERFORMER "Garmarna"
FLAGS DCP
INDEX 01 25:38:00
TRACK 08 AUDIO
TITLE "Bläck"
PERFORMER "Garmarna"
FLAGS DCP
INDEX 01 30:55:38
TRACK 09 AUDIO
TITLE "Polska"
PERFORMER "Garmarna"
FLAGS DCP
INDEX 01 36:00:48
TRACK 10 AUDIO
TITLE "Brun"
PERFORMER "Garmarna"
FLAGS DCP
INDEX 01 39:08:23


Reply to this

-

 torrent

 
 by kuchumovn on: May 30 2010
 
Score 50%

Если что, это эти альбомы:
http://rutracker.org/forum/viewtopic.php?t=256851


Reply to this

goto page: prev   1  2  3  4  5 

Add commentBack






-
 
 
 Who we are
Contact
More about us
Frequently Asked Questions
Register
Twitter
Blog
Explore
Apps
Jobs
Knowledge
Events
People
Updates on identi.ca
Updates on Twitter
Facebook App
Content RSS   
Events RSS   

Participate
Groups
Forum
Add App
Public API
About GTK-Apps.org
Legal Notice
Spreadshirt Shop
CafePress Shop
Advertising
Sponsor us
Report Abuse
 

Copyright 2007-2014 GTK-Apps.org Team  
All rights reserved. GTK-Apps.org is not liable for any content or goods on this site.
All contributors are responsible for the lawfulness of their uploads.