-
 KDE-Apps.org Applications for the KDE-Desktop 
 GTK-Apps.org Applications using the GTK Toolkit 
 GnomeFiles.org Applications for GNOME 
 MeeGo-Central.org Applications for MeeGo 
 CLI-Apps.org Command Line Applications 
 Qt-Apps.org Free Qt Applications 
 Qt-Prop.org Proprietary Qt Applications 
 Maemo-Apps.org Applications for the Maemo Plattform 
 Java-Apps.org Free Java Applications 
 eyeOS-Apps.org Free eyeOS Applications 
 Wine-Apps.org Wine Applications 
 Server-Apps.org Server Applications 
 apps.ownCloud.com ownCloud Applications 
--
-
 KDE-Look.org Artwork for the KDE-Desktop 
 GNOME-Look.org Artwork for the GNOME-Desktop 
 Xfce-Look.org Artwork for the Xfce-Desktop 
 Box-Look.org Artwork for your Windowmanager 
 E17-Stuff.org Artwork for Enlightenment 
 Beryl-Themes.org Artwork for the Beryl Windowmanager 
 Compiz-Themes.org Artwork for the Compiz Windowmanager 
 EDE-Look.org Themes for your EDE Desktop 
--
-
 Debian-Art.org Stuff for Debian 
 Gentoo-Art.org Artwork for Gentoo Linux 
 SUSE-Art.org Artwork for openSUSE 
 Ubuntu-Art.org Artwork for Ubuntu 
 Kubuntu-Art.org Artwork for Kubuntu 
 LinuxMint-Art.org Artwork for Linux Mint 
 Arch-Stuff.org Art And Stuff for Arch Linux 
 Frugalware-Art.org Themes for Frugalware 
 Fedora-Art.org Artwork for Fedora Linux 
 Mandriva-Art.org Artwork for Mandriva Linux 
--
-
 KDE-Files.org Files for KDE Applications 
 OpenTemplate.org Documents for OpenOffice.org
 GIMPStuff.org Files for GIMP
 InkscapeStuff.org Files for Inkscape
 ScribusStuff.org Files for Scribus
 BlenderStuff.org Textures and Objects for Blender
 VLC-Addons.org Themes and Extensions for VLC
--
-
 KDE-Help.org Support for your KDE Desktop 
 GNOME-Help.org Support for your GNOME Desktop 
 Xfce-Help.org Support for your Xfce Desktop 
--
openDesktop.orgopenDesktop.org:   Applications   Artwork   Linux Distributions   Documents    LinuxDaily.com    Linux42.org    OpenSkillz.com   
 
Apps
News
Groups
Knowledge
Events
Forum
People
Jobs
Register
Login


Sponsoring


-
- Content .- Fans (13) .- Knowledge Base  . 

gCue2tracks

   0.5.0  

GTK Sound Application

Score 85%
gCue2tracks
zoom


gCue2tracks
zoom


Link:  Link
Depends on  GTK 2.x
Downloads:  11544
Submitted:  May 10 2008
Updated:  Feb 16 2013

Description:

Tool for spliting compressed audio CD image to tracks with filling tags from cue sheet info.

Decompression of all formats supported by ffmpeg(flac,ape,wv,tta...). For more details see:
ffmpeg -formats
in the console.
Encoding formats:
wav : no encode, raw sound wave,
flac : (default) Free Lossless Audio Codec,
ape : Monkey's Audio Codec,
wv : WavPack,
mp3 : mpeg 1 layer 3 via lame
ogg : ogg vorbis


Dependencies:
python, python-gtk2 (>=2.16), cuetools, shntool, ffmpeg

Debian(Ubuntu) repository:
Add this line to your /etc/apt/source.list: deb http://dicson.no-ip.info/repository/debian unstable main
You can get the GPG key of this package by installing gcue2tracks-dev-keyring package from the same repository.




Changelog:

gcue2tracks (0.5.0)
* switching to gtk.Builder
Sat, 14 Aug 2010 12:26:17 +0400

gcue2tracks (0.4.9)
* added french translation. Thanks to Le Gluon du Net
Sun, 01 Aug 2010 23:15:34 +0400

gcue2tracks (0.4.8)
* parse error fix. thanks to andreyz!
* error dialog if codec not exits
Sun, 27 Jun 2010 14:27:56 +0400




LicenseGPL
Debian(gcue2tracks_0.5.2_all.deb)
Source(gcue2tracks_0.5.2-1.tar.gz)
Send to a friend
Subscribe
Other  Apps  from Dicson12
Report inappropriate content



goto page: prev   1  2  3  4  5 

-
.

 PERFORMER

 
 by Oreolek on: Dec 7 2009
 
Score 50%

PERFORMER "Various"
TITLE "A Time To Remember - 1964"

FILE "A Time To Remember - 1964.flac" WAVE

TRACK 01 AUDIO

TITLE "I'm Into Something Good"

PERFORMER "Herman's Hermits"

INDEX 00 00:00:00

INDEX 01 00:00:32

TRACK 02 AUDIO

TITLE "Do Wah Diddy Diddy"

PERFORMER "Manfred Mann"

INDEX 00 02:35:40

INDEX 01 02:38:70


You app thinks Various is the performer for EVERY song of the album. So I have to retag EVERY song after the splitting.
Please consider a checkbox or smth to use the song's PERFORMER tag instead of the album one.


Reply to this

-

 Re: PERFORMER

 
 by Dicson12 on: Dec 7 2009
 
Score 50%

I'll think about it. Thanks


Reply to this

-

 Re: PERFORMER

 
 by Dicson12 on: Jan 6 2010
 
Score 50%

please update to 0.4.4


Reply to this

-

 Re: Re: PERFORMER

 
 by Oreolek on: Jan 7 2010
 
Score 50%

Спасибо!
Я так давно этого ждал!
Наконец-то я могу переконвертить все 50 дисков!


Reply to this

-

 Re: Re: PERFORMER

 
 by Oreolek on: Jan 7 2010
 
Score 50%

Окей, теперь он застрял.
Я загрузил в очередь 17 CD,запустил конвертацию, и напервом же он застрял.
Вот конец лога:

Конвертирование «Wayward Wind» (19/20)
/usr/bin/flac -T TITLE="Wayward Wind" -T ALBUM="A Time To Remember - 1963" -T TRACKNUMBER=19 -T ARTIST="Gerry & The Pacemakers" -T GENRE="" -T DATE="1963" -T DESCRIPTION="gCue2tracks" -T COMPOSER="" --best /tmp/gcue2tracksZ08JEe/split-track19.wav
Конвертирование «You'll Never Walk Alone» (20/20)

Статус бар говорит "Конвертирование «Wayward Wind» (19/20) 99.0%".


Reply to this

-

 Re: Re: Re: PERFORMER

 
 by Dicson12 on: Jan 7 2010
 
Score 50%

Свободное место не кончилось? ссылка на образ не осталась?


Reply to this

-

 Re: Re: Re: Re: PERFORMER

 
 by Oreolek on: Jan 7 2010
 
Score 50%

Нет, свободного места ещё много (450 Гб или больше), ничего мешать не должно
Прогоняю на коллекции http://torrents.ru/forum/viewtopic.php?t=1576661 и ей подобных. Для gcue2tracks это реально испытание.
Кстати, есть ещё один баг: после запуска конвертации изменить инфу или добавить что-то в очередь нельзя. А после остановки нельзя запустить заново. Я обычно прогоняю по диску на программу, как это ни неудобно (и нелогично на первый взгляд).


Reply to this

-

 Re: Re: Re: Re: Re: PERFORMER

 
 by Dicson12 on: Jan 7 2010
 
Score 50%

поставил качать


Reply to this

-
.

 Re: Re: Re: Re: Re: PERFORMER

 
 by Dicson12 on: Jan 7 2010
 
Score 50%

> Прогоняю на коллекции http://torrents.ru/forum/viewtopic.php?t=1576661 и ей подобных.

Скачал,всё сконвертилось.но в A Time To Remember - 1969 имеем фееричный cue:

TRACK 01 AUDIO
TITLE "The Hollies - He Ain't Heavy, He's My Brother"
PERFORMER "The Hollies - He Ain't Heavy, He's My Brother"
INDEX 00 00:00:00
INDEX 01 00:00:32
TRACK 02 AUDIO
TITLE "Inez & Charlie Foxx - Mocking Bird"
PERFORMER "Inez & Charlie Foxx - Mocking Bird"
INDEX 00 04:16:42
INDEX 01 04:19:70

на выходе получаем ясно что....


Reply to this

-
.

 Re: Re: Re: Re: Re: PERFORMER

 
 by Dicson12 on: Jan 7 2010
 
Score 50%

> Кстати, есть ещё один баг: после запуска конвертации изменить инфу или добавить что-то в очередь нельзя.

Тут бы хотелось подробностей.Добавить инфу в тот образ что уже конвертится - нельзя,но править теги в том что стоит в очереди можно.проверил только что. Добавление в очередь,удаление из очереди,смена заданий в очереди - тож работает у меня


Reply to this

-
.

 Re: Re: Re: Re: Re: PERFORMER

 
 by Dicson12 on: Jan 7 2010
 
Score 50%

> Кстати, есть ещё один баг: после запуска конвертации изменить инфу или добавить что-то в очередь нельзя.

Тут бы хотелось подробностей.Добавить инфу в тот образ что уже конвертится - нельзя,но править теги в том что стоит в очереди можно.проверил только что. Добавление в очередь,удаление из очереди,смена заданий в очереди - тож работает у меня


Reply to this

-

 Re: Re: Re: PERFORMER

 
 by Dicson12 on: Jan 7 2010
 
Score 50%

Еще одно предположение. Чтоб проверить - пришлите cue плиз


Reply to this

-

 Re: Re: Re: Re: PERFORMER

 
 by Oreolek on: Jan 7 2010
 
Score 50%

http://www.pastebin.cz/29778


Reply to this

-

 Re: Re: Re: Re: Re: PERFORMER

 
 by Dicson12 on: Jan 7 2010
 
Score 50%

угую спасибо.ясно где косяк.поправлю сегодня.чуть позже


Reply to this

-

 Re: Re: Re: PERFORMER

 
 by Dicson12 on: Jan 7 2010
 
Score 50%

http://dicson.no-ip.info/repository/debian/main/gcue2tracks_0.4.4_all.deb

http://dicson.no-ip.info/repository/debian/main/gcue2tracks_0.4.4.tar.gz

или обновиться с репозитория. пробуем.отписываемся


Reply to this

-

 Re: Re: Re: Re: PERFORMER

 
 by Oreolek on: Jan 8 2010
 
Score 50%

Обновился до 0.4.5 - теперь застревает на 1964м.


Reply to this

-
.

 Re: Re: Re: Re: Re: PERFORMER

 
 by Dicson12 on: Jan 8 2010
 
Score 50%

Не могу воспроизвести. Покажите вывод при запуске из консоли.Покажите вывод df /tmp

Нужно больше инфы


Reply to this

-
.

 Error :(

 
 by SoaT on: Dec 25 2009
 
Score 50%

Debian sid
Quote:
Exception in thread Thread-2:
Traceback (most recent call last):
File "/usr/lib/python2.5/threading.py", line 486, in __bootstrap_inner
self.run()
File "/usr/share/gcue2tracks/decoder.py", line 726, in run
start()
File "/usr/share/gcue2tracks/decoder.py", line 227, in start
decode_to_wav(command, dic, text = _('Decoding to wav '))
File "/usr/share/gcue2tracks/decoder.py", line 546, in decode_to_wav
duration = (int(u[0]) * 60 + int(u[1])) * 60 + \
ValueError: invalid literal for int() with base 10: 'N/A'


Reply to this

-

 Re: Error :(

 
 by Dicson12 on: Dec 26 2009
 
Score 50%

Ffmpeg не может получить длинну образа.В каком формате образ? Ссылку бы на образ.


Reply to this

-

 Re: Re: Error :(

 
 by SoaT on: Dec 26 2009
 
Score 50%

flac пытаюсь разбить на части.
Пробовал еще скриптом, но он выдаёт ошибку. По гуглу это ишибка устраняется установкой mac-пакета для Манки Аудио, но такого пакета уже нету.


Reply to this

-

 Re: Re: Re: Error :(

 
 by Dicson12 on: Dec 26 2009
 
Score 50%

Ничего не понял... какая связь между mac и flac. Для mac(.ape) все пакеты есть(libmac2, monkeys-audio) в репозитории. Хочется всё же увидеть ссыклу на ваш образ,чтоб попытаться воспроизвести ошибку.


Reply to this

-

 Re: Re: Re: Re: Error :(

 
 by nimiz on: Dec 29 2009
 
Score 50%

Например это:
http://torrents.ru/forum/viewtopic.php?t=2164993


Reply to this

-

 Re: Re: Re: Re: Re: Error :(

 
 by Dicson12 on: Dec 30 2009
 
Score 50%

Проблема возникает на некоторых версиях ffmpeg. Для корректного отображения прогресбара программа парсит вывод ffmpeg чтоб получить длительность образа и текущий обрабатываемый фрейм, но некоторые версии ffmpeg вместо этого возвращают 'N/A'.
Я попытался поправить ошибку (если ffmpeg не возвращает длительность образа то вместо отрисовки нормального прогресбара - индикатор просто будет пульсировать), пакет пока не добавил в репозиторий, хотелось бы чтоб кто-либо попробовал прикрученный костыль на работоспособность.
Ссылки:
http://trac-hg.assembla.com/gCue2tracks/attachment/wiki/Archive/gcue2tracks_0.4.2.11.tar.gz?format=raw

http://trac-hg.assembla.com/gCue2tracks/attachment/wiki/Archive/gcue2tracks_0.4.2.11_all.deb?format=raw

В дебиан ffmpeg из репозитория дебиан-мультимедиа работает нормально. У моего товарища на убунту 4:0.5+svn20090706-2ubuntu2 работает так же без проблем.
Пожалуйста отпишитесь если новая версия у вас работает, или если вы знаете устройство ffmpeg (интересует с каких версий ffmpeg корректно отдает состояние декодирования). Спасибо.


Reply to this

-

 Re: Re: Re: Re: Re: Re: Error :(

 
 by nimiz on: Dec 30 2009
 
Score 50%

Этап, на котором валилось раньше прошёл, но сконвертировать cue, ссылку на который я писал выше не получилось, свалился с ошибкой. Скорей всего, к описанной она отношения не имеет, но исправить её не помешало бы =). Могу прислать вывод консоли, если нужно. Но там ошибки нет, просто слово Error во втором снизу прогресс баре.



-

 Info

 
 by Oreolek on: Jan 6 2010
 
Score 50%

В окне About всё ещё ссылка на нерабочий сайт :-)


Reply to this

-

 Re: Info

 
 by Dicson12 on: Jan 6 2010
 
Score 50%

Спасибо, поправлю.


Reply to this

-
.

 Ð gCue2tracks...

 
 by AUNA on: Feb 5 2010
 
Score 50%

СПАСИБО автору за утилитку! Пригодилась! Порубила три образа без проблем! Сравнил с Flacon пошустрее будет...
Сделал маленький обзор/памятку!
http://zenway.ru/page/gcue2tracks
Dicson12 загляни, посмотри! Может чего исправить, дополнить...


Reply to this

-
.

 Ðе ÑабоÑÐ°ÐµÑ Ñ Ñимлинками?

 
 by Nivelir on: Feb 18 2010
 
Score 50%

Отличная программа, главное имеет понятный интерфейс. Но почему она не работает с символичными линками в пути исходящих файлов (save to)? Или это только у меня?
Сколько не пытался, процес зависал на этапе копирования нарезаных файлов во входящую папку.
Стоит отметить, что приложение очень долго (около минуты) но всё же создаёт новую папку.

И хотелось бы иметь возможность закидывать новые куи после предыдущей операции, а не запускать программу заново.


Reply to this

-

 Re: Ðе ÑабоÑÐ°ÐµÑ Ñ Ñимлинками?

 
 by Nivelir on: Feb 18 2010
 
Score 50%

Э.. ошибочка вышла с последним предложением, работает без перезапуска.


Reply to this

-

 Re: Ðе ÑабоÑÐ°ÐµÑ Ñ Ñимлинками?

 
 by Dicson12 on: Feb 19 2010
 
Score 50%

не пробовал симлинки, если честно. надо будет посмотреть


Reply to this

-
.

 Ð¡ÑопоÑÐ¸Ñ Ð¿Ñи налиÑии ÑмлаÑÑ

 
 by Nivelir on: Feb 25 2010
 
Score 50%

Интересная особенность, программа останавливается если в теге есть умлаут (возможно и другие подобные символы).
Например:
Quote:
TRACK 09 AUDIO
TITLE "Get Up ... Carmen"
PERFORMER "Waldeck"
INDEX 00 02:51:13
INDEX 01 31:44:31
TRACK 10 AUDIO
TITLE "Bei mir bist du schön (dub)"
PERFORMER "Waldeck"
INDEX 00 02:51:13
INDEX 01 35:45:29


Log пишет следующее:
Quote:
Decoding to wav
split tracks
start encode
Encoding "Get Up ... Carmen" (1/2)
/usr/bin/flac -T TITLE="Get Up ... Carmen" -T ALBUM="Ballroom Stories" -T TRACKNUMBER=09 -T ARTIST="Waldeck" -T GENRE="Trip-Hop" -T DATE="2007" -T DESCRIPTION="gCue2tracks" -T COMPOSER="" --best /tmp/gcue2tracksUeKNFw/split-track09.wav


к следующему файлу уже не переходя.
Если заменить на простую "о" то всё работает нормально.


Reply to this

goto page: prev   1  2  3  4  5 

Add commentBack






-
 
 
 Who we are
Contact
More about us
Frequently Asked Questions
Register
Twitter
Blog
Explore
Apps
Jobs
Knowledge
Events
People
Updates on identi.ca
Updates on Twitter
Facebook App
Content RSS   
Events RSS   

Participate
Groups
Forum
Add App
Public API
About GTK-Apps.org
Legal Notice
Spreadshirt Shop
CafePress Shop
Advertising
Sponsor us
Report Abuse
 

Copyright 2007-2014 GTK-Apps.org Team  
All rights reserved. GTK-Apps.org is not liable for any content or goods on this site.
All contributors are responsible for the lawfulness of their uploads.